<?xml version="1.0" encoding="UTF-8" standalone="no"?>
<!DOCTYPE svg  PUBLIC '-//W3C//DTD SVG 1.1//EN'  'http://www.w3.org/Graphics/SVG/1.1/DTD/svg11.dtd'>
<svg xmlns="http://www.w3.org/2000/svg">
<defs>
<font id="Brisk-Regular" horiz-adv-x="646">
<font-face underline-position="-58" font-weight="400" descent="-200" panose-1="0 0 0 0 0 0 0 0 0 0" units-per-em="1000" unicode-range="U+0020-F0FF" bbox="-299 -293 859 894" x-height="480" underline-thickness="61" font-family="Brisk" ascent="800" cap-height="715"/>
<missing-glyph d="M619 44v619h-531v-619h531zM44 0v707h619v-707h-619z" horiz-adv-x="707"/>
<glyph glyph-name=".notdef" d="M619 44v619h-531v-619h531zM44 0v707h619v-707h-619z" horiz-adv-x="707"/>
<glyph glyph-name=".null" horiz-adv-x="0"/>
<glyph glyph-name="nonmarkingreturn" horiz-adv-x="480"/>
<glyph glyph-name="space" horiz-adv-x="480" unicode=" "/>
<glyph glyph-name="exclam" horiz-adv-x="145" unicode="!" d="M78 -2q-23 0 -23 23q1 8 4 13q7 13 21 13q22 0 22 -24q0 -8 -6.5 -16.5t-17.5 -8.5zM55 182v527h47v-527h-47z"/>
<glyph glyph-name="quotedbl" horiz-adv-x="242" unicode='&quot;' d="M143 510v209h46v-209h-46zM51 510v209h47v-209h-47z"/>
<glyph glyph-name="numbersign" horiz-adv-x="607" unicode="#" d="M373 281l20 141h-137l-22 -141h139zM199 484l37 215h61l-31 -217h134l32 217h60l-31 -215h100v-62h-110l-19 -141h101v-60h-113l-31 -229h-61l29 231h-136l-33 -231h-59l33 231h-111v60h119l21 141h-113v60h121z"/>
<glyph glyph-name="dollar" horiz-adv-x="596" unicode="$" d="M322 432h-13v-387h25q57 0 110 50q62 58 62 145q0 75 -54.5 133.5t-125.5 58.5h-4zM266 674h-49q-45 0 -78.5 -30.5t-33.5 -73.5q0 -42 36 -68.5t82 -26.5h43v199zM307 721h199v-47h-197v-199h7q97 0 167 -72t70 -174q0 -95 -72 -162t-170 -67v-61h-45v61h-205v45h205 v387h-45q-64 0 -110 38q-50 42 -50 110q0 67 48 106q43 35 110 35h47v56h41v-56z"/>
<glyph glyph-name="percent" horiz-adv-x="611" unicode="%" d="M428 203q-33 0 -56.5 -23.5t-23.5 -56.5q0 -34 23 -58t57 -24q32 0 55 24t23 58q0 32 -23 56t-55 24zM426 248q53 0 90 -37t37 -90q0 -51 -37 -88t-90 -37q-52 0 -89.5 36.5t-37.5 88.5q0 53 37 90t90 37zM551 719l-446 -717h-54l443 717h57zM182 682q-34 0 -57 -23 t-23 -57q0 -33 23 -57t57 -24q33 0 55.5 23.5t22.5 57.5q0 32 -23 56t-55 24zM180 727q52 0 89.5 -36.5t37.5 -88.5q0 -53 -37 -90t-90 -37t-90 37t-37 90q0 51 37 88t90 37z"/>
<glyph glyph-name="ampersand" horiz-adv-x="586" unicode="&amp;" d="M527 672h-289q-48 0 -74.5 -23.5t-26.5 -76.5q0 -42 29.5 -72.5t69.5 -30.5h149v-43h-65q-98 0 -156.5 -54.5t-58.5 -141.5q0 -71 50 -128t116 -57h215v422h43v-467h-240q-104 0 -169 67t-65 167q0 149 138 207q-43 13 -71 53t-28 88q0 55 43 94t99 39h291v-43z"/>
<glyph glyph-name="quotesingle" horiz-adv-x="174" unicode="&apos;" d="M51 629v90h76v-125q0 -38 -20.5 -67.5t-55.5 -38.5v39q15 6 25 22.5t10 32.5v47h-35z"/>
<glyph glyph-name="parenleft" horiz-adv-x="330" unicode="(" d="M90 313q0 -137 46 -244q43 -100 132 -182h-59q-80 87 -121 190.5t-41 238.5q0 126 39 218t131 187h58q-82 -77 -128 -168q-57 -112 -57 -240z"/>
<glyph glyph-name="parenright" horiz-adv-x="330" unicode=")" d="M240 309q0 116 -56 233q-52 108 -129 175h58q90 -93 130 -186.5t40 -217.5q0 -137 -40.5 -239t-123.5 -191h-58q87 81 131 180q48 108 48 246z"/>
<glyph glyph-name="asterisk" horiz-adv-x="412" unicode="*" d="M164 568l-107 157h48l102 -141l102 141h48l-105 -155h103v-45h-109l104 -154h-47l-98 135l-101 -141h-49l111 158h-111v45h109z"/>
<glyph glyph-name="plus" horiz-adv-x="635" unicode="+" d="M285 295v232h61v-232h230v-66h-232v-231h-59v231h-230v66h230z"/>
<glyph glyph-name="comma" horiz-adv-x="146" unicode="," d="M53 -184v231h45v-231h-45z"/>
<glyph glyph-name="hyphen" horiz-adv-x="305" unicode="-" d="M51 336v43h201v-43h-201z"/>
<glyph glyph-name="period" horiz-adv-x="146" unicode="." d="M88 0q-2 -2 -12 -2q-12 0 -16 5q-4 10 -7 17q3 21 23 21q14 0 20 -12l2 -13q0 -11 -10 -16z"/>
<glyph glyph-name="slash" horiz-adv-x="482" unicode="/" d="M55 0l320 713h53l-326 -713h-47z"/>
<glyph glyph-name="zero" horiz-adv-x="836" unicode="0" d="M416 684q-134 0 -231 -96t-97 -231q0 -133 96.5 -228.5t231.5 -95.5t231.5 95.5t96.5 228.5q0 135 -96 231t-232 96zM416 727q154 0 263.5 -107.5t109.5 -258.5t-109 -258t-264 -107q-154 0 -263.5 107.5t-109.5 257.5q0 152 109 259t264 107z"/>
<glyph glyph-name="one" horiz-adv-x="152" unicode="1" d="M57 4v711h47v-711h-47z"/>
<glyph glyph-name="two" d="M592 0h-281q-111 0 -187.5 66.5t-76.5 169.5q0 98 70.5 167.5t171.5 69.5h160q42 0 71 25q33 28 33 74q-5 58 -53 81q-35 17 -100 17h-300v45h300q87 0 134 -24q64 -33 64 -115q0 -71 -43.5 -109.5t-105.5 -38.5h-172q-78 0 -131.5 -58.5t-53.5 -139.5q0 -84 59.5 -135.5 t159.5 -51.5h281v-43z" unicode="2"/>
<glyph glyph-name="three" horiz-adv-x="590" unicode="3" d="M318 670h-269v43h305q59 0 101.5 -41.5t42.5 -101.5q0 -91 -78 -129q55 -32 86 -83.5t31 -115.5q0 -98 -66 -169t-160 -71h-260v41h256q78 0 132.5 59.5t54.5 139.5t-54 134t-141 54h-246v43h281q52 0 83 20q38 25 38 77t-44 78q-37 22 -93 22z"/>
<glyph glyph-name="four" horiz-adv-x="535" unicode="4" d="M133 467h305v187zM439 424h-386v45l381 238h48v-707h-43v424z"/>
<glyph glyph-name="five" horiz-adv-x="561" unicode="5" d="M475 660h-375v-199h168q113 0 182 -68q66 -65 66 -166q0 -100 -70.5 -164.5t-183.5 -64.5h-211v33h211q87 0 146 49q65 54 65 143q0 84 -59.5 140.5t-142.5 56.5h-216v287h420v-47z"/>
<glyph glyph-name="six" horiz-adv-x="576" unicode="6" d="M389 717l-178 -250q41 12 80 12q100 0 166 -70t66 -169q0 -98 -67.5 -169t-164.5 -71q-101 0 -172.5 70.5t-71.5 169.5q0 47 11.5 80.5t41.5 74.5l236 322h53zM291 432q-95 0 -153 -67q-48 -56 -48 -119q0 -80 49 -138q55 -65 144 -65q83 0 141 56t58 135q0 80 -56 139 t-135 59z"/>
<glyph glyph-name="seven" horiz-adv-x="561" unicode="7" d="M51 664v47h463v-61l-289 -650h-47l293 664h-420z"/>
<glyph glyph-name="eight" horiz-adv-x="598" unicode="8" d="M102 225q0 -81 59.5 -138.5t141.5 -57.5q84 0 144.5 60.5t60.5 144.5q0 82 -59 140t-140 58q-85 0 -146 -61t-61 -146zM309 736q69 0 115 -49q41 -44 41 -99q0 -41 -16.5 -74t-44.5 -55q63 -27 105 -89t42 -138q0 -101 -72.5 -173.5t-173.5 -72.5q-100 0 -176 69.5 t-76 165.5l2 8q0 85 55 154q45 57 101 78q-57 48 -57 123q0 76 54 118q44 34 101 34zM309 689q-44 0 -75 -32t-31 -85q5 -42 34 -68.5t74 -26.5q43 0 73 33t30 78q0 43 -31 72t-74 29z"/>
<glyph glyph-name="nine" horiz-adv-x="604" unicode="9" d="M199 -2l184 244q-40 -13 -84 -13q-101 0 -172.5 69.5t-71.5 168.5q0 104 70.5 178t173.5 74t179.5 -70.5t76.5 -171.5q0 -52 -16.5 -90.5t-54.5 -87.5l-230 -301h-55zM291 273q93 0 155 63q58 59 58 137q0 80 -55 139q-58 62 -144 62q-84 0 -142.5 -57.5t-58.5 -139.5 t54 -143t133 -61z"/>
<glyph glyph-name="colon" horiz-adv-x="148" unicode=":" d="M86 361q-1 -1 -14 -4q-12 3 -14 4.5t-9 19.5q3 15 12 21l9 2q26 0 26 -25q0 -11 -10 -18zM88 0l-12 -2q-13 0 -19 12l-4 11q4 18 11 22l10 2q9 0 17.5 -7.5t8.5 -16.5q0 -18 -12 -21z"/>
<glyph glyph-name="semicolon" horiz-adv-x="143" unicode=";" d="M86 363q-8 -2 -14 -4q-15 4 -19 12l-4 10q3 23 23 23q15 0 22 -9l2 -14q0 -15 -10 -18zM53 -182v219h41v-219h-41z"/>
<glyph glyph-name="less" horiz-adv-x="609" unicode="&lt;" d="M53 293l511 232v-70l-425 -189l425 -202v-66l-511 240v55z"/>
<glyph glyph-name="equal" horiz-adv-x="627" unicode="=" d="M55 131v60h531v-60h-531zM55 328v61h531v-61h-531z"/>
<glyph glyph-name="greater" horiz-adv-x="602" unicode="&gt;" d="M51 525l512 -232v-55l-512 -240v68l426 200l-426 191v68z"/>
<glyph glyph-name="question" horiz-adv-x="584" unicode="?" d="M51 662v45h326q63 0 109.5 -40t46.5 -101t-49.5 -102.5t-114.5 -41.5h-82v-240h-45v285h131q45 0 77 27t32 72q0 42 -35 69t-80 27h-316zM268 -6q-24 0 -24 24q0 8 7.5 16.5t18.5 8.5q21 0 21 -23q0 -26 -23 -26z"/>
<glyph glyph-name="A" d="M102 482h449q0 89 -69 152t-156 63q-84 0 -152 -61q-72 -65 -72 -154zM53 0v445q0 130 77.5 210.5t195.5 80.5q113 0 191.5 -77.5t78.5 -195.5v-465h-45v440h-455v-438h-43z" unicode="A"/>
<glyph glyph-name="B" horiz-adv-x="654" unicode="B" d="M115 484h262q71 0 106 19q44 24 44 77q0 52 -43 77q-37 21 -97 21h-272v-194zM113 47h250q84 0 146.5 57.5t62.5 139.5q0 80 -58 136t-139 56h-262v-389zM367 -2h-299v725h319q90 0 139.5 -36.5t49.5 -104.5q0 -47 -20.5 -78t-59.5 -51q121 -68 121 -209 q0 -107 -73.5 -176.5t-176.5 -69.5z"/>
<glyph glyph-name="C" horiz-adv-x="650" unicode="C" d="M105 350q0 -128 91 -215q98 -94 261 -94h147v-43h-190q-150 0 -252.5 104.5t-102.5 256.5q0 157 108.5 260.5t277.5 103.5h159v-47h-168q-122 0 -217 -76q-114 -91 -114 -250z"/>
<glyph glyph-name="D" d="M109 37h133q139 0 230 96q87 92 87 221q0 133 -98.5 228.5t-233.5 95.5h-118v-641zM64 723h155q176 0 285 -114q101 -105 101 -252q0 -151 -103 -254t-254 -103h-184v723z" unicode="D"/>
<glyph glyph-name="E" horiz-adv-x="641" unicode="E" d="M64 725h536v-49h-483v-197h483v-51h-483v-383h483v-47h-536v727z"/>
<glyph glyph-name="F" horiz-adv-x="650" unicode="F" d="M119 -2h-51v719h553v-51h-502v-191h496v-43h-496v-434z"/>
<glyph glyph-name="G" horiz-adv-x="660" unicode="G" d="M463 47h105v392h-138v47h185v-488h-142q-195 0 -307 107q-105 100 -105 258q0 155 109.5 257.5t278.5 102.5h170v-45h-180q-138 0 -234 -94t-96 -225q0 -129 84 -214q97 -98 270 -98z"/>
<glyph glyph-name="H" horiz-adv-x="648" unicode="H" d="M53 -2v719h43v-242h457v242h43v-717h-41v428h-457v-430h-45z"/>
<glyph glyph-name="I" horiz-adv-x="215" unicode="I" d="M88 0v715h45v-715h-45z"/>
<glyph glyph-name="J" horiz-adv-x="635" unicode="J" d="M504 234v485h49v-487q0 -102 -77 -175t-181 -73q-109 0 -191.5 78.5t-82.5 185.5l2 4h47q0 -89 65 -156t152 -67l10 2q85 0 146 60t61 143z"/>
<glyph glyph-name="K" horiz-adv-x="652" unicode="K" d="M74 0v717h49v-209l406 209h82l-345 -190l355 -531h-51l-347 510l-104 -53v-453h-45z"/>
<glyph glyph-name="L" horiz-adv-x="639" unicode="L" d="M70 0v725h39v-682h498v-43h-537z"/>
<glyph glyph-name="M" horiz-adv-x="768" unicode="M" d="M102 0h-51v717h43l295 -235l277 229h49v-711h-47v654l-285 -230l-281 221v-645z"/>
<glyph glyph-name="N" horiz-adv-x="645" unicode="N" d="M96 0h-43v713h41l453 -244v238h47v-707h-45v416l-453 240v-656z"/>
<glyph glyph-name="O" horiz-adv-x="838" unicode="O" d="M418 689q-134 0 -229 -96t-95 -234q0 -136 95 -233t229 -97t230 97t96 233q0 137 -95.5 233.5t-230.5 96.5zM418 732q154 0 262.5 -109.5t108.5 -263.5q0 -153 -108 -262t-263 -109q-153 0 -261 109t-108 262q0 154 108.5 263.5t260.5 109.5z"/>
<glyph glyph-name="P" horiz-adv-x="637" unicode="P" d="M445 670h-332v-193h334q48 0 80 23q36 26 36 72q0 51 -37 77q-30 21 -81 21zM72 717h387q64 0 106 -35q46 -39 46 -106q0 -71 -48 -109q-42 -33 -108 -33h-342v-436h-41v719z"/>
<glyph glyph-name="Q" horiz-adv-x="852" unicode="Q" d="M426 730q154 0 263.5 -109.5t109.5 -263.5q0 -73 -26 -137t-74 -115l98 -107h-63l-70 74q-49 -41 -110 -64.5t-128 -23.5q-154 0 -263.5 109.5t-109.5 263.5q0 155 109 264t264 109zM426 688q-136 0 -233 -97t-97 -234q0 -136 96 -233t234 -97q136 0 232 97t96 233 q0 137 -96 234t-232 97z"/>
<glyph glyph-name="R" horiz-adv-x="652" unicode="R" d="M555 0l-145 432h-308v-434h-49v725h386q85 0 127 -40q39 -37 39 -105q0 -54 -39.5 -94.5t-104.5 -47.5l141 -436h-47zM104 484h308q68 0 104 20q41 23 41 72q0 53 -33 76.5t-90 23.5h-330v-192z"/>
<glyph glyph-name="S" horiz-adv-x="645" unicode="S" d="M189 717h358v-43h-352q-43 0 -70 -28t-27 -68q0 -50 32 -76q28 -23 73 -23h143q114 0 181 -65t67 -166q0 -103 -70.5 -175.5t-169.5 -72.5h-299v39h285q86 0 146.5 61.5t60.5 151.5q0 78 -57 130t-142 52h-151q-70 0 -107 40t-37 102q0 58 38.5 99.5t97.5 41.5z"/>
<glyph glyph-name="T" horiz-adv-x="637" unicode="T" d="M51 713h535v-39h-246v-676h-43v676h-246v39z"/>
<glyph glyph-name="U" d="M51 275v444h45v-434q0 -102 55 -166q62 -72 175 -72q106 0 164.5 71.5t58.5 190.5v410h45v-414q0 -128 -64 -211q-72 -94 -204 -94q-112 0 -191 75q-84 80 -84 200z" unicode="U"/>
<glyph glyph-name="V" horiz-adv-x="762" unicode="V" d="M104 719l279 -627l279 625h53l-334 -738l-328 740h51z"/>
<glyph glyph-name="W" horiz-adv-x="930" unicode="W" d="M107 719l166 -614l188 377l193 -369l159 606h46l-195 -746l-203 396l-203 -392l-203 742h52z"/>
<glyph glyph-name="X" horiz-adv-x="627" unicode="X" d="M193 717l133 -240l139 240h49l-164 -281l234 -438h-49l-213 387l-222 -385h-47l244 428l-160 289h56z"/>
<glyph glyph-name="Y" horiz-adv-x="594" unicode="Y" d="M96 717l201 -250l205 252h51l-235 -291v-428h-43v428l-230 289h51z"/>
<glyph glyph-name="Z" horiz-adv-x="648" unicode="Z" d="M535 682h-484v43h547v-39l-489 -643h487v-43h-547v39z"/>
<glyph glyph-name="bracketleft" horiz-adv-x="299" unicode="[" d="M51 719h191v-49h-119v-824h125v-51h-197v924z"/>
<glyph glyph-name="backslash" horiz-adv-x="473" unicode="\" d="M111 717l313 -719h-57l-312 719h56z"/>
<glyph glyph-name="bracketright" horiz-adv-x="297" unicode="]" d="M51 719h191v-924h-195v51h123v824h-119v49z"/>
<glyph glyph-name="asciicircum" horiz-adv-x="326" unicode="^" d="M49 631l90 86h70l74 -86h-53l-60 66l-61 -66h-60z"/>
<glyph glyph-name="underscore" horiz-adv-x="639" unicode="_" d="M-6 -152v13h660v-13h-660z"/>
<glyph glyph-name="grave" horiz-adv-x="170" unicode="`" d="M96 637l-61 82h43l57 -82h-39z"/>
<glyph glyph-name="a" horiz-adv-x="535" unicode="a" d="M426 289h-194q-53 0 -93.5 -36.5t-40.5 -88.5q0 -56 35 -89.5t105 -33.5h188v248zM96 488h213q69 0 116.5 -39.5t47.5 -108.5v-342h-264q-66 0 -111 52t-45 126q0 71 56 116.5t137 45.5h180q0 44 -28.5 73.5t-69.5 29.5h-232v47z"/>
<glyph glyph-name="b" horiz-adv-x="533" unicode="b" d="M236 441h-121v-398h110q103 0 162.5 57.5t59.5 147.5q0 84 -55 137q-58 56 -156 56zM68 0v740h47v-250h125q109 0 182.5 -70.5t73.5 -173.5q0 -110 -68 -176q-72 -70 -198 -70h-162z"/>
<glyph glyph-name="c" horiz-adv-x="529" unicode="c" d="M475 488v-45h-161q-96 0 -157 -61q-57 -57 -57 -136q0 -89 61 -145t165 -56h149v-45h-155q-126 0 -196.5 67.5t-70.5 176.5q0 104 74 174t184 70h164z"/>
<glyph glyph-name="d" horiz-adv-x="525" unicode="d" d="M410 441h-123q-97 0 -154 -55t-57 -140q0 -92 60.5 -148.5t164.5 -56.5h109v400zM457 740v-742h-162q-125 0 -195.5 68.5t-70.5 177.5q0 103 73.5 173.5t182.5 70.5h125v252h47z"/>
<glyph glyph-name="e" horiz-adv-x="520" unicode="e" d="M467 488v-47h-184q-52 0 -96 -25.5t-66 -77.5h346v-49h-369q-2 -9 -3 -21t-1 -22q0 -92 59.5 -146.5t162.5 -54.5h151v-45h-156q-126 0 -197 68t-71 176q0 104 74 174t184 70h166z"/>
<glyph glyph-name="f" horiz-adv-x="326" unicode="f" d="M301 734v-45h-18q-27 0 -56 -7.5t-55 -31t-36.5 -53t-10.5 -72.5v-33h176v-51h-174v-441h-49v537q0 45 14 82t49 69q26 23 66.5 34.5t75.5 11.5h18z"/>
<glyph glyph-name="g" horiz-adv-x="531" unicode="g" d="M420 -61v61h-119q-116 0 -191 71t-75 181q0 102 73 170t183 68h176v-558q0 -89 -63 -154t-152 -65t-155 63t-66 152h49q0 -34 15 -70q41 -100 155 -100q75 0 122.5 50.5t47.5 130.5zM418 441h-117q-98 0 -156.5 -52.5t-58.5 -136.5q0 -92 58.5 -148.5t160.5 -56.5h113 v394z"/>
<glyph glyph-name="h" horiz-adv-x="533" unicode="h" d="M33 0v740h51v-248h189q79 0 130 -35q60 -41 60 -117v-338h-49v328q0 62 -36 87.5t-103 25.5h-189v-443h-53z"/>
<glyph glyph-name="i" horiz-adv-x="209" unicode="i" d="M86 0v477h47v-477h-47zM109 727q12 0 20 -9t8 -21q0 -11 -8 -19t-20 -8q-11 0 -19 8t-8 19q0 12 8 21t19 9z"/>
<glyph glyph-name="j" horiz-adv-x="209" unicode="j" d="M104 734q12 0 19.5 -7.5t7.5 -21.5q0 -11 -8 -19t-19 -8q-28 0 -28 27q0 29 28 29zM84 492h45v-558q0 -94 -55 -158q-59 -69 -154 -69q-89 0 -154 61t-65 148h43q0 -70 52 -117t124 -47q75 0 121 55q43 51 43 127v558z"/>
<glyph glyph-name="k" horiz-adv-x="500" unicode="k" d="M51 0v738h45v-400l297 152h84l-245 -138l245 -352h-51l-233 332l-97 -47v-285h-45z"/>
<glyph glyph-name="l" horiz-adv-x="209" unicode="l" d="M84 0v738h47v-738h-47z"/>
<glyph glyph-name="m" horiz-adv-x="689" unicode="m" d="M90 307v-307l-49 -2v313q0 72 45.5 126.5t114.5 54.5q49 0 89 -22t62 -60q19 38 57 62t85 24q63 0 112.5 -45.5t49.5 -110.5v-340h-47v307q0 57 -27 96q-30 44 -84 44q-55 0 -90 -37t-35 -101v-309h-45v316q0 53 -37 92t-88 39t-82 -41.5t-31 -98.5z"/>
<glyph glyph-name="n" horiz-adv-x="502" unicode="n" d="M471 301v-303h-47v293q0 65 -47.5 111.5t-112.5 46.5q-74 0 -124 -52t-50 -124v-273h-47v289q0 87 67 147t158 60q88 0 148 -63q55 -58 55 -132z"/>
<glyph glyph-name="o" horiz-adv-x="574" unicode="o" d="M285 449q-83 0 -143 -60t-60 -145q0 -86 59.5 -146.5t143.5 -60.5t143.5 60.5t59.5 146.5q0 84 -59.5 144.5t-143.5 60.5zM285 496q102 0 176 -74t74 -178q0 -103 -73.5 -176.5t-176.5 -73.5q-104 0 -177 73t-73 177t73 178t177 74z"/>
<glyph glyph-name="p" horiz-adv-x="510" unicode="p" d="M105 47h120q97 0 155 55t58 142q0 89 -60 147t-163 58h-110v-402zM59 -283v773h162q125 0 197 -70q68 -66 68 -174q0 -104 -73 -174t-183 -70h-125v-285h-46z"/>
<glyph glyph-name="q" horiz-adv-x="520" unicode="q" d="M297 45h109v396h-109q-99 0 -156 -57t-57 -152q0 -83 57.5 -135t155.5 -52zM455 490v-773h-47v283h-115q-110 0 -184 69t-74 173q0 108 64 175q70 73 194 73h162z"/>
<glyph glyph-name="r" horiz-adv-x="324" unicode="r" d="M119 0l-45 2v346q0 61 46.5 102.5t109.5 41.5h65v-45h-61q-58 0 -86.5 -36t-28.5 -87v-324z"/>
<glyph glyph-name="s" horiz-adv-x="521" unicode="s" d="M436 447h-274q-25 0 -43.5 -14.5t-18.5 -39.5q0 -29 17 -39t69 -10h115q79 0 130 -48t51 -120q0 -74 -52 -126t-123 -52h-254v47h261q50 0 86 37t36 88q0 53 -38 90t-93 37h-157q-39 0 -65 29.5t-26 71.5q0 39 31.5 66.5t75.5 27.5h272v-45z"/>
<glyph glyph-name="t" horiz-adv-x="316" unicode="t" d="M49 168v570h49v-252h170v-48h-170v-276q0 -56 17 -85q22 -38 74 -38h75v-41h-84q-51 0 -90 33q-23 20 -32 54.5t-9 82.5z"/>
<glyph glyph-name="u" horiz-adv-x="529" unicode="u" d="M283 -10q-89 0 -151 53q-69 59 -69 160v289h46v-287q0 -72 50 -123t122 -51q65 0 112.5 48.5t47.5 108.5v304h45v-301q0 -82 -62.5 -141.5t-140.5 -59.5z"/>
<glyph glyph-name="v" horiz-adv-x="580" unicode="v" d="M299 -20l-244 510h52l190 -402l185 402h53z"/>
<glyph glyph-name="w" horiz-adv-x="723" unicode="w" d="M107 490v-308q0 -66 30 -108.5t84 -42.5t87.5 38.5t33.5 102.5v316h49v-306q0 -73 32 -112t89 -39q43 0 81 37t38 82v338h51v-332q0 -73 -52.5 -121.5t-119.5 -48.5q-47 0 -84 22t-59 60q-20 -38 -58.5 -59t-85.5 -21q-82 0 -126 56q-40 51 -40 134v312h50z"/>
<glyph glyph-name="x" horiz-adv-x="520" unicode="x" d="M240 289l-127 203h51l102 -162l99 162h51l-125 -203l180 -291h-51l-154 250l-157 -250h-50z"/>
<glyph glyph-name="y" horiz-adv-x="520" unicode="y" d="M205 45h217v434h47v-557q0 -87 -60 -149t-145 -62q-87 0 -144 49q-65 56 -65 154h47q0 -63 42.5 -112.5t115.5 -49.5q72 0 117 48t45 130v70h-203q-38 0 -58.5 3.5t-45.5 19.5q-33 24 -47.5 59t-14.5 80v318h47v-330q0 -47 28 -76t77 -29z"/>
<glyph glyph-name="z" horiz-adv-x="529" unicode="z" d="M57 490h425v-47l-361 -398h363v-47h-427v49l363 398h-363v45z"/>
<glyph glyph-name="braceleft" horiz-adv-x="318" unicode="{" d="M209 670q-10 -12 -14 -28.5t-6 -39.5l2 -10v-205q0 -48 -20 -80.5t-64 -46.5q44 -7 65 -48q17 -34 17 -83v-219q0 -42 25.5 -73.5t66.5 -39.5l-27 -2q-43 0 -74 19q-53 32 -53 110v224q0 45 -19 75q-23 35 -65 35q46 9 66 43t20 84v197q0 59 25 95q29 42 84 42h12h27 q-27 -8 -44 -22q-5 -4 -24 -27z"/>
<glyph glyph-name="bar" horiz-adv-x="145" unicode="|" d="M45 -207v924h60v-924h-60z"/>
<glyph glyph-name="braceright" horiz-adv-x="326" unicode="}" d="M45 719h29q31 0 50 -5t39 -24t27 -44t7 -62v-197q0 -18 -2 -28q0 -39 23 -65t65 -34q-44 0 -65 -31t-21 -79v-226q0 -79 -50 -109q-30 -18 -77 -18l-27 2q42 8 67 39t25 74v219q0 54 15 83q19 37 67 48q-44 9 -64 42.5t-20 82.5v203q0 107 -88 129z"/>
<glyph glyph-name="asciitilde" horiz-adv-x="303" unicode="~" d="M100 654h-45l-2 4q3 26 15 42.5t37 16.5q8 0 14 -1t16 -3l43 -16l15 -6l12 4q16 6 16 22h37v-10q0 -25 -15 -37q-11 -8 -38 -16l-37 8l-29 10q-12 4 -18 4l-10 -2q-11 -6 -11 -20z"/>
<glyph glyph-name="c141" d="M441 876l-90 -86h-70l-74 86h53l60 -67l61 67h60zM51 713h535v-39h-246v-676h-43v676h-246v39z" horiz-adv-x="637"/>
<glyph glyph-name="c142" d="M444 876l-90 -86h-70l-74 86h53l60 -67l61 67h60zM535 682h-484v43h547v-39l-489 -643h487v-43h-547v39z" horiz-adv-x="648"/>
<glyph glyph-name="c143" d="M415 872l-60 -82h-39l56 82h43zM535 682h-484v43h547v-39l-489 -643h487v-43h-547v39z" horiz-adv-x="648"/>
<glyph glyph-name="c157" d="M146 681v57h48v-80q0 -25 -12.5 -43.5t-35.5 -24.5v25q10 4 16 14t6 21v31h-22zM49 168v570h49v-252h170v-48h-170v-276q0 -56 17 -85q22 -38 74 -38h75v-41h-84q-51 0 -90 33q-23 20 -32 54.5t-9 82.5z" horiz-adv-x="316"/>
<glyph glyph-name="c158" d="M408 627l-90 -86h-70l-74 86h53l60 -67l61 67h60zM57 490h425v-47l-361 -398h363v-47h-427v49l363 398h-363v45z" horiz-adv-x="529"/>
<glyph glyph-name="nonbreakingspace" horiz-adv-x="199" unicode=" "/>
<glyph glyph-name="exclamdown" horiz-adv-x="475" unicode="¡" d="M354 627l-90 -86h-70l-74 86h53l60 -67l61 67h60z"/>
<glyph glyph-name="cent" horiz-adv-x="475" unicode="¢" d="M325 627q0 -37 -26 -63t-62 -26t-62 26t-26 62l34 1q0 -23 16 -40t40 -17q22 0 38 16t16 41h32z"/>
<glyph glyph-name="sterling" horiz-adv-x="639" unicode="£" d="M70 344l-57 -27l1 41l56 27v340h39v-322l190 90v-42l-190 -89v-319h498v-43h-537v344z"/>
<glyph glyph-name="glyph106" d="M102 482h449q0 89 -69 152t-156 63q-84 0 -152 -61q-72 -65 -72 -154zM551 0v438h-455v-438h-43v445q0 130 77.5 210.5t195.5 80.5q113 0 191.5 -77.5t78.5 -195.5v-465h-17q-35 -25 -62 -66.5t-27 -75.5q0 -51 56 -51h64v-25h-77q-31 0 -51.5 21.5t-20.5 53.5 q0 45 23 80q20 30 67 65z" unicode="¥"/>
<glyph glyph-name="brokenbar" horiz-adv-x="109" unicode="¦" d="M45 381v336h60v-336h-60zM105 159v-366h-60v366h60z"/>
<glyph glyph-name="section" horiz-adv-x="570" unicode="§" d="M195 436l-21 -12q-30 -18 -46 -39q-19 -25 -19 -55q0 -33 15 -56.5t46 -44.5l203 -133l23 13q32 19 49.5 43t17.5 57q0 30 -13.5 51t-41.5 39zM471 547h-57q0 60 -35.5 95.5t-89.5 35.5q-41 0 -73.5 -19t-39.5 -54l-4 -23q0 -33 23 -62q20 -26 53 -45l150 -94 q62 -39 86 -66q37 -41 37 -94q0 -46 -23 -80q-18 -26 -62 -59l-30 -21q32 -25 46.5 -52t14.5 -66q0 -68 -51 -113t-129 -45q-81 0 -135 54t-54 134q1 1 2 6h62q0 -16 -2 -24q0 -49 37 -80t90 -31q46 0 77.5 27.5t31.5 71.5q0 65 -54 100l-211 141q-38 25 -57 57.5t-19 76.5 q0 46 20 78.5t62 58.5l25 16q-51 48 -51 115q0 65 52.5 107.5t123.5 42.5q83 0 133.5 -52.5t50.5 -136.5z"/>
<glyph glyph-name="dieresis" horiz-adv-x="293" unicode="¨" d="M202 612q12 0 20 -8t8 -20q0 -11 -8 -20t-20 -9t-21 8t-9 21q0 12 9 20t21 8zM93 612q12 0 21 -8t9 -20t-9.5 -20.5t-20.5 -8.5q-10 0 -16 4q-12 8 -12 25q0 12 8 20t20 8z"/>
<glyph glyph-name="copyright" horiz-adv-x="824" unicode="©" d="M233 354q0 -76 54 -128q59 -57 157 -57h88v-26h-114q-89 0 -151 63t-62 154q0 93 65.5 155.5t166.5 62.5h95v-28h-101q-73 0 -129 -45q-69 -55 -69 -151zM416 682q-134 0 -228 -94t-94 -229q0 -132 94 -227t228 -95t228 94t94 228q0 133 -94 228t-228 95zM416 721 q149 0 254 -106t105 -256q0 -147 -105 -253t-254 -106t-254 105t-105 254q0 150 105 256t254 106z"/>
<glyph glyph-name="ordfeminine" horiz-adv-x="645" unicode="ª" d="M256 0h-201v39h285q86 0 146.5 61.5t60.5 151.5q0 78 -57 130t-142 52h-151q-70 0 -107 40t-37 102q0 58 38.5 99.5t97.5 41.5h358v-43h-352q-43 0 -70 -28t-27 -68q0 -50 32 -76q28 -23 73 -23h143q114 0 181 -65t67 -166q0 -103 -70.5 -175.5t-169.5 -72.5h-71v-34 q0 -25 5 -34t25 -9q39 0 60 -19.5t21 -49.5q0 -31 -21 -53t-51 -22h-77v25h64q56 0 56 51q0 21 -15.5 31.5t-42.5 10.5h-30q-21 0 -21 54v49z"/>
<glyph glyph-name="guillemotleft" horiz-adv-x="357" unicode="«" d="M309 443l-127 -207l123 -191h-49l-121 193l121 205h53zM229 443l-127 -207l123 -191h-49l-121 193l121 205h53z"/>
<glyph glyph-name="logicalnot" horiz-adv-x="820" unicode="¬" d="M713 252h-662v55h720v-307h-58v252z"/>
<glyph glyph-name="minus" horiz-adv-x="305" unicode="­" d="M51 336v43h201v-43h-201z"/>
<glyph glyph-name="registered" horiz-adv-x="822" unicode="®" d="M564 147l-87 260h-185v-261h-30v435h232q50 0 75 -23.5t25 -63.5q0 -31 -24.5 -56t-62.5 -29l85 -262h-28zM293 438h185q40 0 63.5 13t23.5 42q0 31 -20 45.5t-54 14.5h-198v-115zM416 682q-134 0 -228 -94t-94 -229q0 -132 94 -227t228 -95t228 94t94 228q0 133 -94 228 t-228 95zM416 721q149 0 255 -105t106 -255q0 -149 -106 -255t-255 -106t-254 106t-105 255q0 148 105 254t254 106z"/>
<glyph glyph-name="glyph116" horiz-adv-x="648" unicode="¯" d="M322 871q12 0 20 -9t8 -21q0 -11 -8 -19t-20 -8q-11 0 -19 8t-8 19q0 12 8 21t19 9zM535 682h-484v43h547v-39l-489 -643h487v-43h-547v39z"/>
<glyph glyph-name="degree" horiz-adv-x="156" unicode="°" d="M83 619q-26 0 -26 -26t26 -26t26 26t-26 26zM83 645q22 0 37 -15t15 -37t-15 -37t-37 -15t-37 15t-15 37t15 37t37 15z"/>
<glyph glyph-name="plusminus" horiz-adv-x="492" unicode="±" d="M47 -2v39h402v-39h-402zM229 346v177h48v-177h172v-51h-174v-176h-46v176h-182v51h182z"/>
<glyph glyph-name="twosuperior" horiz-adv-x="645" unicode="²" d="M291 1h31q-37 -25 -65.5 -67t-28.5 -78q0 -51 56 -51h64v-25h-77q-31 0 -51.5 21.5t-20.5 53.5q0 45 24 81q21 31 68 65z"/>
<glyph glyph-name="threesuperior" horiz-adv-x="209" unicode="³" d="M84 365l-65 -30l1 41l64 30v332h47v-309l74 35v-42l-74 -35v-387h-47v365z"/>
<glyph glyph-name="acute" horiz-adv-x="195" unicode="´" d="M151 623l-60 -82h-39l56 82h43z"/>
<glyph glyph-name="mu" horiz-adv-x="643" unicode="µ" d="M51 520h92v-362q0 -44 26 -77.5t67 -33.5q45 0 87 32q46 35 46 77v364h86v-409q0 -32 16.5 -59t46.5 -27q38 9 46 47l8 28h20l-8 -32q-12 -44 -51 -69q-35 -22 -74 -22q-36 4 -65 34t-29 71l-25 -29q-30 -35 -63 -54t-72 -19q-26 0 -60 16q-40 19 -61 47v-37 q0 -34 18.5 -83.5t18.5 -88.5q0 -27 -14 -46.5t-39 -19.5q-23 0 -36.5 17.5t-13.5 42.5q0 29 10 65q23 84 23 105v522z"/>
<glyph glyph-name="paragraph" horiz-adv-x="564" unicode="¶" d="M318 650v-857h-64v529q-82 0 -139.5 57.5t-57.5 138.5q0 85 57 143t144 58h254v-924h-67v855h-127z"/>
<glyph glyph-name="glyph124" horiz-adv-x="172" unicode="·" d="M90 361q33 0 33 -33t-33 -33q-31 0 -31 33q0 14 8.5 23.5t22.5 9.5z"/>
<glyph glyph-name="cedilla" horiz-adv-x="645" unicode="¸" d="M261 -76q39 0 60 -19.5t21 -49.5q0 -31 -21 -53t-51 -22h-77v25h64q56 0 56 51q0 21 -15.5 31.5t-42.5 10.5h-30q-21 0 -21 54v49h27v-34q0 -25 5 -34t25 -9z"/>
<glyph glyph-name="uni00B9" horiz-adv-x="535" unicode="¹" d="M426 289h-194q-53 0 -93.5 -36.5t-40.5 -88.5q0 -56 35 -89.5t105 -33.5h188v248zM413 -2h-204q-66 0 -111 52t-45 126q0 71 56 116.5t137 45.5h180q0 44 -28.5 73.5t-69.5 29.5h-232v47h213q69 0 116.5 -39.5t47.5 -108.5v-342h-30q-35 -25 -62 -66.5t-27 -75.5 q0 -51 56 -51h64v-25h-77q-31 0 -51.5 21.5t-20.5 53.5q0 44 23 79q20 31 65 64z"/>
<glyph glyph-name="ordmasculine" horiz-adv-x="521" unicode="º" d="M209 -2h-156v47h261q50 0 86 37t36 88q0 53 -38 90t-93 37h-157q-39 0 -65 29.5t-26 71.5q0 39 31.5 66.5t75.5 27.5h272v-45h-274q-25 0 -43.5 -14.5t-18.5 -39.5q0 -29 17 -39t69 -10h115q79 0 130 -48t51 -120q0 -74 -52 -126t-123 -52h-71v-30q0 -19 3.5 -31.5 t26.5 -12.5q39 0 60 -19.5t21 -49.5q0 -31 -21 -53t-51 -22h-77v25h64q56 0 56 51q0 21 -15.5 31.5t-42.5 10.5h-30q-21 0 -21 52v48z"/>
<glyph glyph-name="guillemotright" horiz-adv-x="365" unicode="»" d="M178 234l-127 207h53l121 -205l-121 -191h-49zM258 234l-125 207h53l121 -205l-121 -191h-51z"/>
<glyph glyph-name="glyph129" horiz-adv-x="639" unicode="¼" d="M151 668v57h48v-80q0 -25 -12.5 -43.5t-35.5 -24.5v25q10 4 16 14t6 21v31h-22zM70 0v725h39v-682h498v-43h-537z"/>
<glyph glyph-name="onehalf" horiz-adv-x="195" unicode="½" d="M237 623l-60 -82h-39l56 82h43zM104 623l-60 -82h-39l56 82h43z"/>
<glyph glyph-name="glyph131" horiz-adv-x="209" unicode="¾" d="M168 680v57h48v-80q0 -25 -12.5 -43.5t-35.5 -24.5v25q10 4 16 14t6 21v31h-22zM84 0v738h47v-738h-47z"/>
<glyph glyph-name="glyph132" horiz-adv-x="529" unicode="¿" d="M281 727q12 0 20 -9t8 -21q0 -11 -8 -19t-20 -8q-11 0 -19 8t-8 19q0 12 8 21t19 9zM57 490h425v-47l-361 -398h363v-47h-427v49l363 398h-363v45z"/>
<glyph glyph-name="glyph133" horiz-adv-x="652" unicode="À" d="M415 872l-60 -82h-39l56 82h43zM555 0l-145 432h-308v-434h-49v725h386q85 0 127 -40q39 -37 39 -105q0 -54 -39.5 -94.5t-104.5 -47.5l141 -436h-47zM104 484h308q68 0 104 20q41 23 41 72q0 53 -33 76.5t-90 23.5h-330v-192z"/>
<glyph glyph-name="Aacute" d="M409 872l-60 -82h-39l56 82h43zM102 482h449q0 89 -69 152t-156 63q-84 0 -152 -61q-72 -65 -72 -154zM53 0v445q0 130 77.5 210.5t195.5 80.5q113 0 191.5 -77.5t78.5 -195.5v-465h-45v440h-455v-438h-43z" unicode="Á"/>
<glyph glyph-name="Acircumflex" d="M210 789l90 86h70l74 -86h-53l-60 67l-61 -67h-60zM102 482h449q0 89 -69 152t-156 63q-84 0 -152 -61q-72 -65 -72 -154zM53 0v445q0 130 77.5 210.5t195.5 80.5q113 0 191.5 -77.5t78.5 -195.5v-465h-45v440h-455v-438h-43z" unicode="Â"/>
<glyph glyph-name="glyph136" d="M415 879q0 -37 -26 -63t-62 -26t-62 26t-26 62l34 1q0 -23 16 -40t40 -17q22 0 38 16t16 41h32zM102 482h449q0 89 -69 152t-156 63q-84 0 -152 -61q-72 -65 -72 -154zM53 0v445q0 130 77.5 210.5t195.5 80.5q113 0 191.5 -77.5t78.5 -195.5v-465h-45v440h-455v-438h-43z " unicode="Ã"/>
<glyph glyph-name="Adieresis" d="M382 870q12 0 20 -8t8 -20q0 -11 -8 -20t-20 -9t-21 8t-9 21q0 12 9 20t21 8zM273 870q12 0 21 -8t9 -20t-9.5 -20.5t-20.5 -8.5q-10 0 -16 4q-12 8 -12 25q0 12 8 20t20 8zM102 482h449q0 89 -69 152t-156 63q-84 0 -152 -61q-72 -65 -72 -154zM53 0v445 q0 130 77.5 210.5t195.5 80.5q113 0 191.5 -77.5t78.5 -195.5v-465h-45v440h-455v-438h-43z" unicode="Ä"/>
<glyph glyph-name="glyph138" horiz-adv-x="639" unicode="Å" d="M172 872l-60 -82h-39l56 82h43zM70 0v725h39v-682h498v-43h-537z"/>
<glyph glyph-name="AE" horiz-adv-x="650" unicode="Æ" d="M496 872l-60 -82h-39l56 82h43zM105 350q0 -128 91 -215q98 -94 261 -94h147v-43h-190q-150 0 -252.5 104.5t-102.5 256.5q0 157 108.5 260.5t277.5 103.5h159v-47h-168q-122 0 -217 -76q-114 -91 -114 -250z"/>
<glyph glyph-name="Ccedilla" horiz-adv-x="650" unicode="Ç" d="M373 0q-129 0 -221.5 106.5t-92.5 252.5q0 157 108.5 260.5t277.5 103.5h159v-47h-168q-122 0 -217 -76q-114 -91 -114 -250q0 -128 91 -215q98 -94 261 -94h147v-43l-204 1v-33q0 -25 5 -33.5t25 -8.5q39 0 60 -19.5t21 -49.5q0 -31 -21 -53t-51 -22h-77v25h64 q56 0 56 51q0 21 -15.5 31.5t-42.5 10.5h-30q-21 0 -21 54v48z"/>
<glyph glyph-name="Egrave" horiz-adv-x="650" unicode="È" d="M537 876l-90 -86h-70l-74 86h53l60 -67l61 67h60zM105 350q0 -128 91 -215q98 -94 261 -94h147v-43h-190q-150 0 -252.5 104.5t-102.5 256.5q0 157 108.5 260.5t277.5 103.5h159v-47h-168q-122 0 -217 -76q-114 -91 -114 -250z"/>
<glyph glyph-name="Eacute" horiz-adv-x="641" unicode="É" d="M397 872l-60 -82h-39l56 82h43zM64 725h536v-49h-483v-197h483v-51h-483v-383h483v-47h-536v727z"/>
<glyph glyph-name="glyph143" horiz-adv-x="640" unicode="Ê" d="M537 -2h-473v727h536v-49h-483v-197h483v-51h-483v-383h483v-47h-33q-35 -25 -62 -66.5t-27 -75.5q0 -51 56 -51h64v-25h-77q-31 0 -51.5 21.5t-20.5 53.5q0 44 23 79q20 31 65 64z"/>
<glyph glyph-name="Edieresis" horiz-adv-x="641" unicode="Ë" d="M397 873q12 0 20 -8t8 -20q0 -11 -8 -20t-20 -9t-21 8t-9 21q0 12 9 20t21 8zM288 873q12 0 21 -8t9 -20t-9.5 -20.5t-20.5 -8.5q-10 0 -16 4q-12 8 -12 25q0 12 8 20t20 8zM64 725h536v-49h-483v-197h483v-51h-483v-383h483v-47h-536v727z"/>
<glyph glyph-name="glyph145" horiz-adv-x="641" unicode="Ì" d="M459 879l-90 -86h-70l-74 86h53l60 -67l61 67h60zM64 725h536v-49h-483v-197h483v-51h-483v-383h483v-47h-536v727z"/>
<glyph glyph-name="Iacute" horiz-adv-x="215" unicode="Í" d="M199 872l-60 -82h-39l56 82h43zM88 0v715h45v-715h-45z"/>
<glyph glyph-name="Icircumflex" horiz-adv-x="215" unicode="Î" d="M-9 789l90 86h70l74 -86h-53l-60 67l-61 -67h-60zM88 0v715h45v-715h-45z"/>
<glyph glyph-name="glyph148" d="M375 876l-90 -86h-70l-74 86h53l60 -67l61 67h60zM109 37h133q139 0 230 96q87 92 87 221q0 133 -98.5 228.5t-233.5 95.5h-118v-641zM64 723h155q176 0 285 -114q101 -105 101 -252q0 -151 -103 -254t-254 -103h-184v723z" unicode="Ï"/>
<glyph glyph-name="glyph149" d="M109 391h191v-47h-191v-307h133q139 0 230 96q87 92 87 221q0 133 -98.5 228.5t-233.5 95.5h-118v-287zM64 344h-57v47h57v332h155q176 0 285 -114q101 -105 101 -252q0 -151 -103 -254t-254 -103h-184v344z" unicode="Ð"/>
<glyph glyph-name="glyph150" horiz-adv-x="645" unicode="Ñ" d="M406 872l-60 -82h-39l56 82h43zM96 0h-43v713h41l453 -244v238h47v-707h-45v416l-453 240v-656z"/>
<glyph glyph-name="glyph151" horiz-adv-x="645" unicode="Ò" d="M447 879l-90 -86h-70l-74 86h53l60 -67l61 67h60zM96 0h-43v713h41l453 -244v238h47v-707h-45v416l-453 240v-656z"/>
<glyph glyph-name="Oacute" horiz-adv-x="838" unicode="Ó" d="M508 872l-60 -82h-39l56 82h43zM418 689q-134 0 -229 -96t-95 -234q0 -136 95 -233t229 -97t230 97t96 233q0 137 -95.5 233.5t-230.5 96.5zM418 732q154 0 262.5 -109.5t108.5 -263.5q0 -153 -108 -262t-263 -109q-153 0 -261 109t-108 262q0 154 108.5 263.5 t260.5 109.5z"/>
<glyph glyph-name="Ocircumflex" horiz-adv-x="838" unicode="Ô" d="M300 789l90 86h70l74 -86h-53l-60 67l-61 -67h-60zM418 689q-134 0 -229 -96t-95 -234q0 -136 95 -233t229 -97t230 97t96 233q0 137 -95.5 233.5t-230.5 96.5zM418 732q154 0 262.5 -109.5t108.5 -263.5q0 -153 -108 -262t-263 -109q-153 0 -261 109t-108 262 q0 154 108.5 263.5t260.5 109.5z"/>
<glyph glyph-name="glyph154" horiz-adv-x="838" unicode="Õ" d="M573 872l-60 -82h-39l56 82h43zM440 872l-60 -82h-39l56 82h43zM418 689q-134 0 -229 -96t-95 -234q0 -136 95 -233t229 -97t230 97t96 233q0 137 -95.5 233.5t-230.5 96.5zM418 732q154 0 262.5 -109.5t108.5 -263.5q0 -153 -108 -262t-263 -109q-153 0 -261 109 t-108 262q0 154 108.5 263.5t260.5 109.5z"/>
<glyph glyph-name="Odieresis" horiz-adv-x="838" unicode="Ö" d="M475 867q12 0 20 -8t8 -20q0 -11 -8 -20t-20 -9t-21 8t-9 21q0 12 9 20t21 8zM366 867q12 0 21 -8t9 -20t-9.5 -20.5t-20.5 -8.5q-10 0 -16 4q-12 8 -12 25q0 12 8 20t20 8zM418 689q-134 0 -229 -96t-95 -234q0 -136 95 -233t229 -97t230 97t96 233q0 137 -95.5 233.5 t-230.5 96.5zM418 732q154 0 262.5 -109.5t108.5 -263.5q0 -153 -108 -262t-263 -109q-153 0 -261 109t-108 262q0 154 108.5 263.5t260.5 109.5z"/>
<glyph glyph-name="multiply" horiz-adv-x="635" unicode="×" d="M271 264l-164 164l44 43l164 -164l162 162l47 -46l-164 -164l163 -164l-42 -41l-163 163l-163 -163l-46 47z"/>
<glyph glyph-name="glyph157" horiz-adv-x="652" unicode="Ø" d="M432 873l-90 -86h-70l-74 86h53l60 -67l61 67h60zM555 0l-145 432h-308v-434h-49v725h386q85 0 127 -40q39 -37 39 -105q0 -54 -39.5 -94.5t-104.5 -47.5l141 -436h-47zM104 484h308q68 0 104 20q41 23 41 72q0 53 -33 76.5t-90 23.5h-330v-192z"/>
<glyph glyph-name="glyph158" d="M335 868q-26 0 -26 -26t26 -26t26 26t-26 26zM335 894q22 0 37 -15t15 -37t-15 -37t-37 -15t-37 15t-15 37t15 37t37 15zM51 275v444h45v-434q0 -102 55 -166q62 -72 175 -72q106 0 164.5 71.5t58.5 190.5v410h45v-414q0 -128 -64 -211q-72 -94 -204 -94q-112 0 -191 75 q-84 80 -84 200z" unicode="Ù"/>
<glyph glyph-name="Uacute" d="M388 872l-60 -82h-39l56 82h43zM51 275v444h45v-434q0 -102 55 -166q62 -72 175 -72q106 0 164.5 71.5t58.5 190.5v410h45v-414q0 -128 -64 -211q-72 -94 -204 -94q-112 0 -191 75q-84 80 -84 200z" unicode="Ú"/>
<glyph glyph-name="glyph160" d="M477 872l-60 -82h-39l56 82h43zM344 872l-60 -82h-39l56 82h43zM51 275v444h45v-434q0 -102 55 -166q62 -72 175 -72q106 0 164.5 71.5t58.5 190.5v410h45v-414q0 -128 -64 -211q-72 -94 -204 -94q-112 0 -191 75q-84 80 -84 200z" unicode="Û"/>
<glyph glyph-name="Udieresis" d="M388 870q12 0 20 -8t8 -20q0 -11 -8 -20t-20 -9t-21 8t-9 21q0 12 9 20t21 8zM279 870q12 0 21 -8t9 -20t-9.5 -20.5t-20.5 -8.5q-10 0 -16 4q-12 8 -12 25q0 12 8 20t20 8zM51 275v444h45v-434q0 -102 55 -166q62 -72 175 -72q106 0 164.5 71.5t58.5 190.5v410h45v-414 q0 -128 -64 -211q-72 -94 -204 -94q-112 0 -191 75q-84 80 -84 200z" unicode="Ü"/>
<glyph glyph-name="Yacute" horiz-adv-x="594" unicode="Ý" d="M385 872l-60 -82h-39l56 82h43zM96 717l201 -250l205 252h51l-235 -291v-428h-43v428l-230 289h51z"/>
<glyph glyph-name="glyph163" horiz-adv-x="637" unicode="Þ" d="M293 -100v72h61v-100q0 -30 -16.5 -53.5t-44.5 -31.5v32q11 4 19.5 17.5t8.5 26.5v37h-28zM51 713h535v-39h-246v-676h-43v676h-246v39z"/>
<glyph glyph-name="germandbls" horiz-adv-x="527" unicode="ß" d="M100 494v-496h-47v541q0 76 52 133t125 57q66 0 117 -46t51 -109q0 -47 -18 -72q-13 -18 -50 -41q71 -29 109 -85.5t38 -133.5q0 -97 -63.5 -169.5t-157.5 -72.5h-123v45h111q79 0 133.5 59.5t54.5 141.5q0 81 -60 139t-143 58h-92v47h93q52 0 79 13q38 18 43 65 q0 46 -37 81t-81 35q-74 0 -108 -62q-26 -48 -26 -128z"/>
<glyph glyph-name="glyph165" horiz-adv-x="324" unicode="à" d="M277 623l-60 -82h-39l56 82h43zM119 0l-45 2v346q0 61 46.5 102.5t109.5 41.5h65v-45h-61q-58 0 -86.5 -36t-28.5 -87v-324z"/>
<glyph glyph-name="aacute" horiz-adv-x="535" unicode="á" d="M352 623l-60 -82h-39l56 82h43zM426 289h-194q-53 0 -93.5 -36.5t-40.5 -88.5q0 -56 35 -89.5t105 -33.5h188v248zM96 488h213q69 0 116.5 -39.5t47.5 -108.5v-342h-264q-66 0 -111 52t-45 126q0 71 56 116.5t137 45.5h180q0 44 -28.5 73.5t-69.5 29.5h-232v47z"/>
<glyph glyph-name="acircumflex" horiz-adv-x="535" unicode="â" d="M150 540l90 86h70l74 -86h-53l-60 67l-61 -67h-60zM426 289h-194q-53 0 -93.5 -36.5t-40.5 -88.5q0 -56 35 -89.5t105 -33.5h188v248zM96 488h213q69 0 116.5 -39.5t47.5 -108.5v-342h-264q-66 0 -111 52t-45 126q0 71 56 116.5t137 45.5h180q0 44 -28.5 73.5t-69.5 29.5 h-232v47z"/>
<glyph glyph-name="glyph168" horiz-adv-x="535" unicode="ã" d="M361 630q0 -37 -26 -63t-62 -26t-62 26t-26 62l34 1q0 -23 16 -40t40 -17q22 0 38 16t16 41h32zM426 289h-194q-53 0 -93.5 -36.5t-40.5 -88.5q0 -56 35 -89.5t105 -33.5h188v248zM96 488h213q69 0 116.5 -39.5t47.5 -108.5v-342h-264q-66 0 -111 52t-45 126 q0 71 56 116.5t137 45.5h180q0 44 -28.5 73.5t-69.5 29.5h-232v47z"/>
<glyph glyph-name="adieresis" horiz-adv-x="535" unicode="ä" d="M355 609q12 0 20 -8t8 -20q0 -11 -8 -20t-20 -9t-21 8t-9 21q0 12 9 20t21 8zM246 609q12 0 21 -8t9 -20t-9.5 -20.5t-20.5 -8.5q-10 0 -16 4q-12 8 -12 25q0 12 8 20t20 8zM426 289h-194q-53 0 -93.5 -36.5t-40.5 -88.5q0 -56 35 -89.5t105 -33.5h188v248zM96 488h213 q69 0 116.5 -39.5t47.5 -108.5v-342h-264q-66 0 -111 52t-45 126q0 71 56 116.5t137 45.5h180q0 44 -28.5 73.5t-69.5 29.5h-232v47z"/>
<glyph glyph-name="glyph170" horiz-adv-x="209" unicode="å" d="M196 872l-60 -82h-39l56 82h43zM84 0v738h47v-738h-47z"/>
<glyph glyph-name="ae" horiz-adv-x="529" unicode="æ" d="M409 623l-60 -82h-39l56 82h43zM475 488v-45h-161q-96 0 -157 -61q-57 -57 -57 -136q0 -89 61 -145t165 -56h149v-45h-155q-126 0 -196.5 67.5t-70.5 176.5q0 104 74 174t184 70h164z"/>
<glyph glyph-name="ccedilla" horiz-adv-x="529" unicode="ç" d="M283 2q-109 10 -169.5 75.5t-60.5 166.5q0 104 74 174t184 70h164v-45h-161q-96 0 -157 -61q-57 -57 -57 -136q0 -89 61 -145t165 -56h149v-45h-165v-31q0 -27 5 -36t25 -9q39 0 60 -19.5t21 -49.5q0 -31 -21 -53t-51 -22h-77v25h64q56 0 56 51q0 21 -15.5 31.5 t-42.5 10.5h-30q-13 0 -17 13.5t-4 45.5v45z"/>
<glyph glyph-name="egrave" horiz-adv-x="529" unicode="è" d="M462 627l-90 -86h-70l-74 86h53l60 -67l61 67h60zM475 488v-45h-161q-96 0 -157 -61q-57 -57 -57 -136q0 -89 61 -145t165 -56h149v-45h-155q-126 0 -196.5 67.5t-70.5 176.5q0 104 74 174t184 70h164z"/>
<glyph glyph-name="eacute" horiz-adv-x="520" unicode="é" d="M406 623l-60 -82h-39l56 82h43zM467 488v-47h-184q-52 0 -96 -25.5t-66 -77.5h346v-49h-369q-2 -9 -3 -21t-1 -22q0 -92 59.5 -146.5t162.5 -54.5h151v-45h-156q-126 0 -197 68t-71 176q0 104 74 174t184 70h166z"/>
<glyph glyph-name="glyph175" horiz-adv-x="520" unicode="ê" d="M414 0h-103q-126 0 -197 68t-71 176q0 104 74 174t184 70h166v-47h-184q-52 0 -96 -25.5t-66 -77.5h346v-49h-369q-2 -9 -3 -21t-1 -22q0 -92 59.5 -146.5t162.5 -54.5h151v-45h-23q-36 -25 -64 -67.5t-28 -76.5q0 -51 56 -51h64v-25h-77q-31 0 -51.5 21.5t-20.5 53.5 q0 45 24 81q21 31 67 64z"/>
<glyph glyph-name="edieresis" horiz-adv-x="520" unicode="ë" d="M391 612q12 0 20 -8t8 -20q0 -11 -8 -20t-20 -9t-21 8t-9 21q0 12 9 20t21 8zM282 612q12 0 21 -8t9 -20t-9.5 -20.5t-20.5 -8.5q-10 0 -16 4q-12 8 -12 25q0 12 8 20t20 8zM467 488v-47h-184q-52 0 -96 -25.5t-66 -77.5h346v-49h-369q-2 -9 -3 -21t-1 -22 q0 -92 59.5 -146.5t162.5 -54.5h151v-45h-156q-126 0 -197 68t-71 176q0 104 74 174t184 70h166z"/>
<glyph glyph-name="glyph177" horiz-adv-x="520" unicode="ì" d="M447 627l-90 -86h-70l-74 86h53l60 -67l61 67h60zM467 488v-47h-184q-52 0 -96 -25.5t-66 -77.5h346v-49h-369q-2 -9 -3 -21t-1 -22q0 -92 59.5 -146.5t162.5 -54.5h151v-45h-156q-126 0 -197 68t-71 176q0 104 74 174t184 70h166z"/>
<glyph glyph-name="iacute" horiz-adv-x="209" unicode="í" d="M199 623l-60 -82h-39l56 82h43zM86 0v477h47v-477h-47z"/>
<glyph glyph-name="icircumflex" horiz-adv-x="209" unicode="î" d="M-9 540l90 86h70l74 -86h-53l-60 67l-61 -67h-60zM86 0v477h47v-477h-47z"/>
<glyph glyph-name="glyph180" horiz-adv-x="547" unicode="ï" d="M496 683v57h48v-80q0 -25 -12.5 -43.5t-35.5 -24.5v25q10 4 16 14t6 21v31h-22zM410 441h-123q-97 0 -154 -55t-57 -140q0 -92 60.5 -148.5t164.5 -56.5h109v400zM457 740v-742h-162q-125 0 -195.5 68.5t-70.5 177.5q0 103 73.5 173.5t182.5 70.5h125v252h47z"/>
<glyph glyph-name="eth" horiz-adv-x="525" unicode="ð" d="M410 441h-123q-97 0 -154 -55t-57 -140q0 -92 60.5 -148.5t164.5 -56.5h109v400zM410 604h-191v47h191v89h47v-89h55v-47h-55v-606h-162q-125 0 -195.5 68.5t-70.5 177.5q0 103 73.5 173.5t182.5 70.5h125v116z"/>
<glyph glyph-name="glyph182" horiz-adv-x="502" unicode="ñ" d="M337 623l-60 -82h-39l56 82h43zM471 301v-303h-47v293q0 65 -47.5 111.5t-112.5 46.5q-74 0 -124 -52t-50 -124v-273h-47v289q0 87 67 147t158 60q88 0 148 -63q55 -58 55 -132z"/>
<glyph glyph-name="glyph183" horiz-adv-x="502" unicode="ò" d="M387 627l-90 -86h-70l-74 86h53l60 -67l61 67h60zM471 301v-303h-47v293q0 65 -47.5 111.5t-112.5 46.5q-74 0 -124 -52t-50 -124v-273h-47v289q0 87 67 147t158 60q88 0 148 -63q55 -58 55 -132z"/>
<glyph glyph-name="oacute" horiz-adv-x="574" unicode="ó" d="M364 623l-60 -82h-39l56 82h43zM285 449q-83 0 -143 -60t-60 -145q0 -86 59.5 -146.5t143.5 -60.5t143.5 60.5t59.5 146.5q0 84 -59.5 144.5t-143.5 60.5zM285 496q102 0 176 -74t74 -178q0 -103 -73.5 -176.5t-176.5 -73.5q-104 0 -177 73t-73 177t73 178t177 74z"/>
<glyph glyph-name="ocircumflex" horiz-adv-x="574" unicode="ô" d="M165 540l90 86h70l74 -86h-53l-60 67l-61 -67h-60zM285 449q-83 0 -143 -60t-60 -145q0 -86 59.5 -146.5t143.5 -60.5t143.5 60.5t59.5 146.5q0 84 -59.5 144.5t-143.5 60.5zM285 496q102 0 176 -74t74 -178q0 -103 -73.5 -176.5t-176.5 -73.5q-104 0 -177 73t-73 177 t73 178t177 74z"/>
<glyph glyph-name="glyph186" horiz-adv-x="574" unicode="õ" d="M426 623l-60 -82h-39l56 82h43zM293 623l-60 -82h-39l56 82h43zM285 449q-83 0 -143 -60t-60 -145q0 -86 59.5 -146.5t143.5 -60.5t143.5 60.5t59.5 146.5q0 84 -59.5 144.5t-143.5 60.5zM285 496q102 0 176 -74t74 -178q0 -103 -73.5 -176.5t-176.5 -73.5 q-104 0 -177 73t-73 177t73 178t177 74z"/>
<glyph glyph-name="odieresis" horiz-adv-x="574" unicode="ö" d="M340 615q12 0 20 -8t8 -20q0 -11 -8 -20t-20 -9t-21 8t-9 21q0 12 9 20t21 8zM231 615q12 0 21 -8t9 -20t-9.5 -20.5t-20.5 -8.5q-10 0 -16 4q-12 8 -12 25q0 12 8 20t20 8zM285 449q-83 0 -143 -60t-60 -145q0 -86 59.5 -146.5t143.5 -60.5t143.5 60.5t59.5 146.5 q0 84 -59.5 144.5t-143.5 60.5zM285 496q102 0 176 -74t74 -178q0 -103 -73.5 -176.5t-176.5 -73.5q-104 0 -177 73t-73 177t73 178t177 74z"/>
<glyph glyph-name="divide" horiz-adv-x="455" unicode="÷" d="M258 350q-1 -1 -22 -6q-19 4 -24 11q-1 2 -10 25q5 23 18 32q9 3 13 3q18 0 29 -11t11 -27q0 -17 -15 -27zM259 -12q-3 -1 -9.5 -2t-9.5 -1q-19 0 -28 18q-2 4 -2 6q-3 8 -4 10q3 16 5.5 22.5t10.5 11.5l15 3q15 0 27.5 -11.5t12.5 -25.5q0 -26 -18 -31zM57 194v47h355 v-47h-355z"/>
<glyph glyph-name="glyph189" horiz-adv-x="324" unicode="ø" d="M333 627l-90 -86h-70l-74 86h53l60 -67l61 67h60zM119 0l-45 2v346q0 61 46.5 102.5t109.5 41.5h65v-45h-61q-58 0 -86.5 -36t-28.5 -87v-324z"/>
<glyph glyph-name="glyph190" horiz-adv-x="529" unicode="ù" d="M278 619q-26 0 -26 -26t26 -26t26 26t-26 26zM278 645q22 0 37 -15t15 -37t-15 -37t-37 -15t-37 15t-15 37t15 37t37 15zM283 -10q-89 0 -151 53q-69 59 -69 160v289h46v-287q0 -72 50 -123t122 -51q65 0 112.5 48.5t47.5 108.5v304h45v-301q0 -82 -62.5 -141.5 t-140.5 -59.5z"/>
<glyph glyph-name="uacute" horiz-adv-x="529" unicode="ú" d="M355 623l-60 -82h-39l56 82h43zM283 -10q-89 0 -151 53q-69 59 -69 160v289h46v-287q0 -72 50 -123t122 -51q65 0 112.5 48.5t47.5 108.5v304h45v-301q0 -82 -62.5 -141.5t-140.5 -59.5z"/>
<glyph glyph-name="glyph192" horiz-adv-x="529" unicode="û" d="M426 623l-60 -82h-39l56 82h43zM293 623l-60 -82h-39l56 82h43zM283 -10q-89 0 -151 53q-69 59 -69 160v289h46v-287q0 -72 50 -123t122 -51q65 0 112.5 48.5t47.5 108.5v304h45v-301q0 -82 -62.5 -141.5t-140.5 -59.5z"/>
<glyph glyph-name="udieresis" horiz-adv-x="529" unicode="ü" d="M334 615q12 0 20 -8t8 -20q0 -11 -8 -20t-20 -9t-21 8t-9 21q0 12 9 20t21 8zM225 615q12 0 21 -8t9 -20t-9.5 -20.5t-20.5 -8.5q-10 0 -16 4q-12 8 -12 25q0 12 8 20t20 8zM283 -10q-89 0 -151 53q-69 59 -69 160v289h46v-287q0 -72 50 -123t122 -51q65 0 112.5 48.5 t47.5 108.5v304h45v-301q0 -82 -62.5 -141.5t-140.5 -59.5z"/>
<glyph glyph-name="yacute" horiz-adv-x="520" unicode="ý" d="M346 623l-60 -82h-39l56 82h43zM205 45h217v434h47v-557q0 -87 -60 -149t-145 -62q-87 0 -144 49q-65 56 -65 154h47q0 -63 42.5 -112.5t115.5 -49.5q72 0 117 48t45 130v70h-203q-38 0 -58.5 3.5t-45.5 19.5q-33 24 -47.5 59t-14.5 80v318h47v-330q0 -47 28 -76t77 -29z "/>
<glyph glyph-name="glyph195" horiz-adv-x="316" unicode="þ" d="M119 -100v72h61v-100q0 -30 -16.5 -53.5t-44.5 -31.5v32q11 4 19.5 17.5t8.5 26.5v37h-28zM49 168v570h49v-252h170v-48h-170v-276q0 -56 17 -85q22 -38 74 -38h75v-41h-84q-51 0 -90 33q-23 20 -32 54.5t-9 82.5z"/>
<glyph glyph-name="Atilde" d="M415 879q0 -37 -26 -63t-62 -26t-62 26t-26 62l34 1q0 -23 16 -40t40 -17q22 0 38 16t16 41h32zM102 482h449q0 89 -69 152t-156 63q-84 0 -152 -61q-72 -65 -72 -154zM53 0v445q0 130 77.5 210.5t195.5 80.5q113 0 191.5 -77.5t78.5 -195.5v-465h-45v440h-455v-438h-43z " unicode="Ă"/>
<glyph glyph-name="atilde" horiz-adv-x="535" unicode="ă" d="M361 630q0 -37 -26 -63t-62 -26t-62 26t-26 62l34 1q0 -23 16 -40t40 -17q22 0 38 16t16 41h32zM426 289h-194q-53 0 -93.5 -36.5t-40.5 -88.5q0 -56 35 -89.5t105 -33.5h188v248zM96 488h213q69 0 116.5 -39.5t47.5 -108.5v-342h-264q-66 0 -111 52t-45 126 q0 71 56 116.5t137 45.5h180q0 44 -28.5 73.5t-69.5 29.5h-232v47z"/>
<glyph glyph-name="yen" d="M102 482h449q0 89 -69 152t-156 63q-84 0 -152 -61q-72 -65 -72 -154zM551 0v438h-455v-438h-43v445q0 130 77.5 210.5t195.5 80.5q113 0 191.5 -77.5t78.5 -195.5v-465h-17q-35 -25 -62 -66.5t-27 -75.5q0 -51 56 -51h64v-25h-77q-31 0 -51.5 21.5t-20.5 53.5 q0 45 23 80q20 30 67 65z" unicode="Ą"/>
<glyph glyph-name="onesuperior" horiz-adv-x="535" unicode="ą" d="M426 289h-194q-53 0 -93.5 -36.5t-40.5 -88.5q0 -56 35 -89.5t105 -33.5h188v248zM413 -2h-204q-66 0 -111 52t-45 126q0 71 56 116.5t137 45.5h180q0 44 -28.5 73.5t-69.5 29.5h-232v47h213q69 0 116.5 -39.5t47.5 -108.5v-342h-30q-35 -25 -62 -66.5t-27 -75.5 q0 -51 56 -51h64v-25h-77q-31 0 -51.5 21.5t-20.5 53.5q0 44 23 79q20 31 65 64z"/>
<glyph glyph-name="Cacute" horiz-adv-x="650" unicode="Ć" d="M496 872l-60 -82h-39l56 82h43zM105 350q0 -128 91 -215q98 -94 261 -94h147v-43h-190q-150 0 -252.5 104.5t-102.5 256.5q0 157 108.5 260.5t277.5 103.5h159v-47h-168q-122 0 -217 -76q-114 -91 -114 -250z"/>
<glyph glyph-name="cacute" horiz-adv-x="529" unicode="ć" d="M409 623l-60 -82h-39l56 82h43zM475 488v-45h-161q-96 0 -157 -61q-57 -57 -57 -136q0 -89 61 -145t165 -56h149v-45h-155q-126 0 -196.5 67.5t-70.5 176.5q0 104 74 174t184 70h164z"/>
<glyph glyph-name="Ccaron" horiz-adv-x="650" unicode="Č" d="M537 876l-90 -86h-70l-74 86h53l60 -67l61 67h60zM105 350q0 -128 91 -215q98 -94 261 -94h147v-43h-190q-150 0 -252.5 104.5t-102.5 256.5q0 157 108.5 260.5t277.5 103.5h159v-47h-168q-122 0 -217 -76q-114 -91 -114 -250z"/>
<glyph glyph-name="ccaron" horiz-adv-x="529" unicode="č" d="M462 627l-90 -86h-70l-74 86h53l60 -67l61 67h60zM475 488v-45h-161q-96 0 -157 -61q-57 -57 -57 -136q0 -89 61 -145t165 -56h149v-45h-155q-126 0 -196.5 67.5t-70.5 176.5q0 104 74 174t184 70h164z"/>
<glyph glyph-name="Idieresis" d="M375 876l-90 -86h-70l-74 86h53l60 -67l61 67h60zM109 37h133q139 0 230 96q87 92 87 221q0 133 -98.5 228.5t-233.5 95.5h-118v-641zM64 723h155q176 0 285 -114q101 -105 101 -252q0 -151 -103 -254t-254 -103h-184v723z" unicode="Ď"/>
<glyph glyph-name="idieresis" horiz-adv-x="547" unicode="ď" d="M496 683v57h48v-80q0 -25 -12.5 -43.5t-35.5 -24.5v25q10 4 16 14t6 21v31h-22zM410 441h-123q-97 0 -154 -55t-57 -140q0 -92 60.5 -148.5t164.5 -56.5h109v400zM457 740v-742h-162q-125 0 -195.5 68.5t-70.5 177.5q0 103 73.5 173.5t182.5 70.5h125v252h47z"/>
<glyph glyph-name="Eth" d="M109 391h191v-47h-191v-307h133q139 0 230 96q87 92 87 221q0 133 -98.5 228.5t-233.5 95.5h-118v-287zM64 344h-57v47h57v332h155q176 0 285 -114q101 -105 101 -252q0 -151 -103 -254t-254 -103h-184v344z" unicode="Đ"/>
<glyph glyph-name="dcroat" horiz-adv-x="525" unicode="đ" d="M410 441h-123q-97 0 -154 -55t-57 -140q0 -92 60.5 -148.5t164.5 -56.5h109v400zM410 604h-191v47h191v89h47v-89h55v-47h-55v-606h-162q-125 0 -195.5 68.5t-70.5 177.5q0 103 73.5 173.5t182.5 70.5h125v116z"/>
<glyph glyph-name="Ecircumflex" horiz-adv-x="640" unicode="Ę" d="M537 -2h-473v727h536v-49h-483v-197h483v-51h-483v-383h483v-47h-33q-35 -25 -62 -66.5t-27 -75.5q0 -51 56 -51h64v-25h-77q-31 0 -51.5 21.5t-20.5 53.5q0 44 23 79q20 31 65 64z"/>
<glyph glyph-name="ecircumflex" horiz-adv-x="520" unicode="ę" d="M414 0h-103q-126 0 -197 68t-71 176q0 104 74 174t184 70h166v-47h-184q-52 0 -96 -25.5t-66 -77.5h346v-49h-369q-2 -9 -3 -21t-1 -22q0 -92 59.5 -146.5t162.5 -54.5h151v-45h-23q-36 -25 -64 -67.5t-28 -76.5q0 -51 56 -51h64v-25h-77q-31 0 -51.5 21.5t-20.5 53.5 q0 45 24 81q21 31 67 64z"/>
<glyph glyph-name="Igrave" horiz-adv-x="641" unicode="Ě" d="M459 879l-90 -86h-70l-74 86h53l60 -67l61 67h60zM64 725h536v-49h-483v-197h483v-51h-483v-383h483v-47h-536v727z"/>
<glyph glyph-name="igrave" horiz-adv-x="520" unicode="ě" d="M447 627l-90 -86h-70l-74 86h53l60 -67l61 67h60zM467 488v-47h-184q-52 0 -96 -25.5t-66 -77.5h346v-49h-369q-2 -9 -3 -21t-1 -22q0 -92 59.5 -146.5t162.5 -54.5h151v-45h-156q-126 0 -197 68t-71 176q0 104 74 174t184 70h166z"/>
<glyph glyph-name="Aring" horiz-adv-x="639" unicode="Ĺ" d="M172 872l-60 -82h-39l56 82h43zM70 0v725h39v-682h498v-43h-537z"/>
<glyph glyph-name="aring" horiz-adv-x="209" unicode="ĺ" d="M196 872l-60 -82h-39l56 82h43zM84 0v738h47v-738h-47z"/>
<glyph glyph-name="onequarter" horiz-adv-x="639" unicode="Ľ" d="M151 668v57h48v-80q0 -25 -12.5 -43.5t-35.5 -24.5v25q10 4 16 14t6 21v31h-22zM70 0v725h39v-682h498v-43h-537z"/>
<glyph glyph-name="threequarters" horiz-adv-x="209" unicode="ľ" d="M168 680v57h48v-80q0 -25 -12.5 -43.5t-35.5 -24.5v25q10 4 16 14t6 21v31h-22zM84 0v738h47v-738h-47z"/>
<glyph glyph-name="Lslash" horiz-adv-x="639" unicode="Ł" d="M70 344l-57 -27l1 41l56 27v340h39v-322l190 90v-42l-190 -89v-319h498v-43h-537v344z"/>
<glyph glyph-name="lslash" horiz-adv-x="209" unicode="ł" d="M84 365l-65 -30l1 41l64 30v332h47v-309l74 35v-42l-74 -35v-387h-47v365z"/>
<glyph glyph-name="Ntilde" horiz-adv-x="645" unicode="Ń" d="M406 872l-60 -82h-39l56 82h43zM96 0h-43v713h41l453 -244v238h47v-707h-45v416l-453 240v-656z"/>
<glyph glyph-name="ntilde" horiz-adv-x="502" unicode="ń" d="M337 623l-60 -82h-39l56 82h43zM471 301v-303h-47v293q0 65 -47.5 111.5t-112.5 46.5q-74 0 -124 -52t-50 -124v-273h-47v289q0 87 67 147t158 60q88 0 148 -63q55 -58 55 -132z"/>
<glyph glyph-name="Ograve" horiz-adv-x="645" unicode="Ň" d="M447 879l-90 -86h-70l-74 86h53l60 -67l61 67h60zM96 0h-43v713h41l453 -244v238h47v-707h-45v416l-453 240v-656z"/>
<glyph glyph-name="ograve" horiz-adv-x="502" unicode="ň" d="M387 627l-90 -86h-70l-74 86h53l60 -67l61 67h60zM471 301v-303h-47v293q0 65 -47.5 111.5t-112.5 46.5q-74 0 -124 -52t-50 -124v-273h-47v289q0 87 67 147t158 60q88 0 148 -63q55 -58 55 -132z"/>
<glyph glyph-name="Otilde" horiz-adv-x="838" unicode="Ő" d="M573 872l-60 -82h-39l56 82h43zM440 872l-60 -82h-39l56 82h43zM418 689q-134 0 -229 -96t-95 -234q0 -136 95 -233t229 -97t230 97t96 233q0 137 -95.5 233.5t-230.5 96.5zM418 732q154 0 262.5 -109.5t108.5 -263.5q0 -153 -108 -262t-263 -109q-153 0 -261 109 t-108 262q0 154 108.5 263.5t260.5 109.5z"/>
<glyph glyph-name="otilde" horiz-adv-x="574" unicode="ő" d="M426 623l-60 -82h-39l56 82h43zM293 623l-60 -82h-39l56 82h43zM285 449q-83 0 -143 -60t-60 -145q0 -86 59.5 -146.5t143.5 -60.5t143.5 60.5t59.5 146.5q0 84 -59.5 144.5t-143.5 60.5zM285 496q102 0 176 -74t74 -178q0 -103 -73.5 -176.5t-176.5 -73.5 q-104 0 -177 73t-73 177t73 178t177 74z"/>
<glyph glyph-name="glyph224" horiz-adv-x="645" unicode="Œ" d="M421 872l-60 -82h-39l56 82h43zM189 717h358v-43h-352q-43 0 -70 -28t-27 -68q0 -50 32 -76q28 -23 73 -23h143q114 0 181 -65t67 -166q0 -103 -70.5 -175.5t-169.5 -72.5h-299v39h285q86 0 146.5 61.5t60.5 151.5q0 78 -57 130t-142 52h-151q-70 0 -107 40t-37 102 q0 58 38.5 99.5t97.5 41.5z"/>
<glyph glyph-name="glyph225" horiz-adv-x="521" unicode="œ" d="M349 623l-60 -82h-39l56 82h43zM436 447h-274q-25 0 -43.5 -14.5t-18.5 -39.5q0 -29 17 -39t69 -10h115q79 0 130 -48t51 -120q0 -74 -52 -126t-123 -52h-254v47h261q50 0 86 37t36 88q0 53 -38 90t-93 37h-157q-39 0 -65 29.5t-26 71.5q0 39 31.5 66.5t75.5 27.5h272 v-45z"/>
<glyph glyph-name="Agrave" horiz-adv-x="652" unicode="Ŕ" d="M415 872l-60 -82h-39l56 82h43zM555 0l-145 432h-308v-434h-49v725h386q85 0 127 -40q39 -37 39 -105q0 -54 -39.5 -94.5t-104.5 -47.5l141 -436h-47zM104 484h308q68 0 104 20q41 23 41 72q0 53 -33 76.5t-90 23.5h-330v-192z"/>
<glyph glyph-name="agrave" horiz-adv-x="324" unicode="ŕ" d="M277 623l-60 -82h-39l56 82h43zM119 0l-45 2v346q0 61 46.5 102.5t109.5 41.5h65v-45h-61q-58 0 -86.5 -36t-28.5 -87v-324z"/>
<glyph glyph-name="Oslash" horiz-adv-x="652" unicode="Ř" d="M432 873l-90 -86h-70l-74 86h53l60 -67l61 67h60zM555 0l-145 432h-308v-434h-49v725h386q85 0 127 -40q39 -37 39 -105q0 -54 -39.5 -94.5t-104.5 -47.5l141 -436h-47zM104 484h308q68 0 104 20q41 23 41 72q0 53 -33 76.5t-90 23.5h-330v-192z"/>
<glyph glyph-name="oslash" horiz-adv-x="324" unicode="ř" d="M333 627l-90 -86h-70l-74 86h53l60 -67l61 67h60zM119 0l-45 2v346q0 61 46.5 102.5t109.5 41.5h65v-45h-61q-58 0 -86.5 -36t-28.5 -87v-324z"/>
<glyph glyph-name="OE" horiz-adv-x="645" unicode="Ś" d="M421 872l-60 -82h-39l56 82h43zM189 717h358v-43h-352q-43 0 -70 -28t-27 -68q0 -50 32 -76q28 -23 73 -23h143q114 0 181 -65t67 -166q0 -103 -70.5 -175.5t-169.5 -72.5h-299v39h285q86 0 146.5 61.5t60.5 151.5q0 78 -57 130t-142 52h-151q-70 0 -107 40t-37 102 q0 58 38.5 99.5t97.5 41.5z"/>
<glyph glyph-name="oe" horiz-adv-x="521" unicode="ś" d="M349 623l-60 -82h-39l56 82h43zM436 447h-274q-25 0 -43.5 -14.5t-18.5 -39.5q0 -29 17 -39t69 -10h115q79 0 130 -48t51 -120q0 -74 -52 -126t-123 -52h-254v47h261q50 0 86 37t36 88q0 53 -38 90t-93 37h-157q-39 0 -65 29.5t-26 71.5q0 39 31.5 66.5t75.5 27.5h272 v-45z"/>
<glyph glyph-name="Scedilla" horiz-adv-x="645" unicode="Ş" d="M256 0h-201v39h285q86 0 146.5 61.5t60.5 151.5q0 78 -57 130t-142 52h-151q-70 0 -107 40t-37 102q0 58 38.5 99.5t97.5 41.5h358v-43h-352q-43 0 -70 -28t-27 -68q0 -50 32 -76q28 -23 73 -23h143q114 0 181 -65t67 -166q0 -103 -70.5 -175.5t-169.5 -72.5h-71v-34 q0 -25 5 -34t25 -9q39 0 60 -19.5t21 -49.5q0 -31 -21 -53t-51 -22h-77v25h64q56 0 56 51q0 21 -15.5 31.5t-42.5 10.5h-30q-21 0 -21 54v49z"/>
<glyph glyph-name="scedilla" horiz-adv-x="521" unicode="ş" d="M209 -2h-156v47h261q50 0 86 37t36 88q0 53 -38 90t-93 37h-157q-39 0 -65 29.5t-26 71.5q0 39 31.5 66.5t75.5 27.5h272v-45h-274q-25 0 -43.5 -14.5t-18.5 -39.5q0 -29 17 -39t69 -10h115q79 0 130 -48t51 -120q0 -74 -52 -126t-123 -52h-71v-30q0 -19 3.5 -31.5 t26.5 -12.5q39 0 60 -19.5t21 -49.5q0 -31 -21 -53t-51 -22h-77v25h64q56 0 56 51q0 21 -15.5 31.5t-42.5 10.5h-30q-21 0 -21 52v48z"/>
<glyph glyph-name="Scaron" horiz-adv-x="645" unicode="Š" d="M441 876l-90 -86h-70l-74 86h53l60 -67l61 67h60zM189 717h358v-43h-352q-43 0 -70 -28t-27 -68q0 -50 32 -76q28 -23 73 -23h143q114 0 181 -65t67 -166q0 -103 -70.5 -175.5t-169.5 -72.5h-299v39h285q86 0 146.5 61.5t60.5 151.5q0 78 -57 130t-142 52h-151 q-70 0 -107 40t-37 102q0 58 38.5 99.5t97.5 41.5z"/>
<glyph glyph-name="scaron" horiz-adv-x="521" unicode="š" d="M393 627l-90 -86h-70l-74 86h53l60 -67l61 67h60zM436 447h-274q-25 0 -43.5 -14.5t-18.5 -39.5q0 -29 17 -39t69 -10h115q79 0 130 -48t51 -120q0 -74 -52 -126t-123 -52h-254v47h261q50 0 86 37t36 88q0 53 -38 90t-93 37h-157q-39 0 -65 29.5t-26 71.5q0 39 31.5 66.5 t75.5 27.5h272v-45z"/>
<glyph glyph-name="Thorn" horiz-adv-x="637" unicode="Ţ" d="M293 -100v72h61v-100q0 -30 -16.5 -53.5t-44.5 -31.5v32q11 4 19.5 17.5t8.5 26.5v37h-28zM51 713h535v-39h-246v-676h-43v676h-246v39z"/>
<glyph glyph-name="thorn" horiz-adv-x="316" unicode="ţ" d="M119 -100v72h61v-100q0 -30 -16.5 -53.5t-44.5 -31.5v32q11 4 19.5 17.5t8.5 26.5v37h-28zM49 168v570h49v-252h170v-48h-170v-276q0 -56 17 -85q22 -38 74 -38h75v-41h-84q-51 0 -90 33q-23 20 -32 54.5t-9 82.5z"/>
<glyph glyph-name="c141" horiz-adv-x="637" unicode="Ť" d="M441 876l-90 -86h-70l-74 86h53l60 -67l61 67h60zM51 713h535v-39h-246v-676h-43v676h-246v39z"/>
<glyph glyph-name="c157" horiz-adv-x="316" unicode="ť" d="M146 681v57h48v-80q0 -25 -12.5 -43.5t-35.5 -24.5v25q10 4 16 14t6 21v31h-22zM49 168v570h49v-252h170v-48h-170v-276q0 -56 17 -85q22 -38 74 -38h75v-41h-84q-51 0 -90 33q-23 20 -32 54.5t-9 82.5z"/>
<glyph glyph-name="Ugrave" d="M335 868q-26 0 -26 -26t26 -26t26 26t-26 26zM335 894q22 0 37 -15t15 -37t-15 -37t-37 -15t-37 15t-15 37t15 37t37 15zM51 275v444h45v-434q0 -102 55 -166q62 -72 175 -72q106 0 164.5 71.5t58.5 190.5v410h45v-414q0 -128 -64 -211q-72 -94 -204 -94q-112 0 -191 75 q-84 80 -84 200z" unicode="Ů"/>
<glyph glyph-name="ugrave" horiz-adv-x="529" unicode="ů" d="M278 619q-26 0 -26 -26t26 -26t26 26t-26 26zM278 645q22 0 37 -15t15 -37t-15 -37t-37 -15t-37 15t-15 37t15 37t37 15zM283 -10q-89 0 -151 53q-69 59 -69 160v289h46v-287q0 -72 50 -123t122 -51q65 0 112.5 48.5t47.5 108.5v304h45v-301q0 -82 -62.5 -141.5 t-140.5 -59.5z"/>
<glyph glyph-name="Ucircumflex" d="M477 872l-60 -82h-39l56 82h43zM344 872l-60 -82h-39l56 82h43zM51 275v444h45v-434q0 -102 55 -166q62 -72 175 -72q106 0 164.5 71.5t58.5 190.5v410h45v-414q0 -128 -64 -211q-72 -94 -204 -94q-112 0 -191 75q-84 80 -84 200z" unicode="Ű"/>
<glyph glyph-name="ucircumflex" horiz-adv-x="529" unicode="ű" d="M426 623l-60 -82h-39l56 82h43zM293 623l-60 -82h-39l56 82h43zM283 -10q-89 0 -151 53q-69 59 -69 160v289h46v-287q0 -72 50 -123t122 -51q65 0 112.5 48.5t47.5 108.5v304h45v-301q0 -82 -62.5 -141.5t-140.5 -59.5z"/>
<glyph glyph-name="glyph244" horiz-adv-x="529" unicode="Ÿ" d="M370 623l-60 -82h-39l56 82h43zM57 490h425v-47l-361 -398h363v-47h-427v49l363 398h-363v45z"/>
<glyph glyph-name="c143" horiz-adv-x="648" unicode="Ź" d="M415 872l-60 -82h-39l56 82h43zM535 682h-484v43h547v-39l-489 -643h487v-43h-547v39z"/>
<glyph glyph-name="Ydieresis" horiz-adv-x="529" unicode="ź" d="M370 623l-60 -82h-39l56 82h43zM57 490h425v-47l-361 -398h363v-47h-427v49l363 398h-363v45z"/>
<glyph glyph-name="macron" horiz-adv-x="648" unicode="Ż" d="M322 871q12 0 20 -9t8 -21q0 -11 -8 -19t-20 -8q-11 0 -19 8t-8 19q0 12 8 21t19 9zM535 682h-484v43h547v-39l-489 -643h487v-43h-547v39z"/>
<glyph glyph-name="questiondown" horiz-adv-x="529" unicode="ż" d="M281 727q12 0 20 -9t8 -21q0 -11 -8 -19t-20 -8q-11 0 -19 8t-8 19q0 12 8 21t19 9zM57 490h425v-47l-361 -398h363v-47h-427v49l363 398h-363v45z"/>
<glyph glyph-name="Zcaron" horiz-adv-x="648" unicode="Ž" d="M444 876l-90 -86h-70l-74 86h53l60 -67l61 67h60zM535 682h-484v43h547v-39l-489 -643h487v-43h-547v39z"/>
<glyph glyph-name="zcaron" horiz-adv-x="529" unicode="ž" d="M408 627l-90 -86h-70l-74 86h53l60 -67l61 67h60zM57 490h425v-47l-361 -398h363v-47h-427v49l363 398h-363v45z"/>
<glyph glyph-name="caron" horiz-adv-x="475" unicode="ˇ" d="M354 627l-90 -86h-70l-74 86h53l60 -67l61 67h60z"/>
<glyph glyph-name="breve" horiz-adv-x="475" unicode="˘" d="M325 627q0 -37 -26 -63t-62 -26t-62 26t-26 62l34 1q0 -23 16 -40t40 -17q22 0 38 16t16 41h32z"/>
<glyph glyph-name="dotaccent" horiz-adv-x="209" unicode="˙" d="M109 727q12 0 20 -9t8 -21q0 -11 -8 -19t-20 -8q-11 0 -19 8t-8 19q0 12 8 21t19 9z"/>
<glyph glyph-name="ring" horiz-adv-x="156" unicode="˚" d="M83 619q-26 0 -26 -26t26 -26t26 26t-26 26zM83 645q22 0 37 -15t15 -37t-15 -37t-37 -15t-37 15t-15 37t15 37t37 15z"/>
<glyph glyph-name="ogonek" horiz-adv-x="645" unicode="˛" d="M291 1h31q-37 -25 -65.5 -67t-28.5 -78q0 -51 56 -51h64v-25h-77q-31 0 -51.5 21.5t-20.5 53.5q0 45 24 81q21 31 68 65z"/>
<glyph glyph-name="hungarumlaut" horiz-adv-x="195" unicode="˝" d="M237 623l-60 -82h-39l56 82h43zM104 623l-60 -82h-39l56 82h43z"/>
<glyph glyph-name="endash" horiz-adv-x="455" unicode="–" d="M57 330v47h355v-47h-355z"/>
<glyph glyph-name="emdash" horiz-adv-x="826" unicode="—" d="M57 332v49h716v-49h-716z"/>
<glyph glyph-name="quoteleft" horiz-adv-x="176" unicode="‘" d="M127 582v-90h-78v125q0 41 21 68.5t57 37.5v-39q-35 -18 -35 -57v-45h35z"/>
<glyph glyph-name="quoteright" horiz-adv-x="174" unicode="’" d="M51 629v90h76v-125q0 -38 -20.5 -67.5t-55.5 -38.5v39q15 6 25 22.5t10 32.5v47h-35z"/>
<glyph glyph-name="quotesinglbase" horiz-adv-x="146" unicode="‚" d="M53 -184v231h45v-231h-45z"/>
<glyph glyph-name="quotedblleft" horiz-adv-x="328" unicode="“" d="M281 580v-90h-76v125q0 40 20.5 68.5t57.5 37.5v-37q-19 -13 -27 -25.5t-8 -33.5v-45h33zM129 582v-90h-76v125q0 81 76 106v-39q-35 -21 -35 -57v-45h35z"/>
<glyph glyph-name="quotedblright" horiz-adv-x="334" unicode="”" d="M55 631v90h76v-125q0 -39 -19.5 -67t-56.5 -37v37q33 19 33 57v45h-33zM207 631v90h76v-125q0 -39 -19.5 -67t-56.5 -37v37q35 21 35 57v45h-35z"/>
<glyph glyph-name="quotedblbase" horiz-adv-x="232" unicode="„" d="M145 -184v231h45v-231h-45zM53 -184v231h45v-231h-45z"/>
<glyph glyph-name="dagger" horiz-adv-x="594" unicode="†" d="M268 498v221h58v-223h219v-62h-219v-639h-58v639h-217v64h217z"/>
<glyph glyph-name="daggerdbl" horiz-adv-x="594" unicode="‡" d="M268 260h-214v64h214v110h-217v64h217v221h58v-223h219v-62h-219v-110l222 -1v-63h-222v-465h-58v465z"/>
<glyph glyph-name="bullet" horiz-adv-x="250" unicode="•" d="M124 353q36 0 66 -30t30 -66q0 -37 -29.5 -64.5t-66.5 -27.5q-34 0 -63 27t-29 65q0 36 29 66t63 30z"/>
<glyph glyph-name="ellipsis" horiz-adv-x="480" unicode="…" d="M412 45q9 0 15.5 -7.5t6.5 -16.5q0 -23 -22 -23q-23 0 -23 23q0 9 6.5 16.5t16.5 7.5zM242 45q9 0 16.5 -7.5t7.5 -16.5q0 -10 -7.5 -16.5t-16.5 -6.5q-10 0 -16.5 6.5t-6.5 16.5q0 8 7 16t16 8zM74 45q9 0 16.5 -7.5t7.5 -16.5q0 -10 -7.5 -16.5t-16.5 -6.5 q-10 0 -16.5 8.5t-6.5 14.5q0 9 7.5 16.5t15.5 7.5z"/>
<glyph glyph-name="perthousand" horiz-adv-x="873" unicode="‰" d="M713 203q-33 0 -56.5 -23.5t-23.5 -56.5q0 -34 23 -58t57 -24q32 0 55 24t23 58q0 32 -23 56t-55 24zM711 248q53 0 90 -37t37 -90q0 -51 -37 -88t-90 -37q-52 0 -89.5 36.5t-37.5 88.5q0 53 37 90t90 37zM428 203q-33 0 -56.5 -23.5t-23.5 -56.5q0 -34 23 -58t57 -24 q32 0 55 24t23 58q0 32 -23 56t-55 24zM426 248q53 0 90 -37t37 -90q0 -51 -37 -88t-90 -37q-52 0 -89.5 36.5t-37.5 88.5q0 53 37 90t90 37zM551 719l-446 -717h-54l443 717h57zM182 682q-34 0 -57 -23t-23 -57q0 -33 23 -57t57 -24q33 0 55.5 23.5t22.5 57.5q0 32 -23 56 t-55 24zM180 727q52 0 89.5 -36.5t37.5 -88.5q0 -53 -37 -90t-90 -37t-90 37t-37 90q0 51 37 88t90 37z"/>
<glyph glyph-name="guilsinglleft" horiz-adv-x="321" unicode="‹" d="M98 234l123 -189h-49l-121 191l121 205h53z"/>
<glyph glyph-name="guilsinglright" horiz-adv-x="319" unicode="›" d="M178 234l-127 207h53l121 -205l-121 -191h-49z"/>
<glyph glyph-name="trademark" horiz-adv-x="816" unicode="™" d="M399 286h-31v430h26l177 -141l166 137h30v-426h-29v392l-171 -138l-168 133v-387zM21 715h321v-24h-148v-405h-26v405h-147v24z"/>
<glyph glyph-name="periodcentered" horiz-adv-x="172" unicode="∙" d="M90 361q33 0 33 -33t-33 -33q-31 0 -31 33q0 14 8.5 23.5t22.5 9.5z"/>
<glyph glyph-name="ydieresis" horiz-adv-x="209" unicode="" d="M109 727q12 0 20 -9t8 -21q0 -11 -8 -19t-20 -8q-11 0 -19 8t-8 19q0 12 8 21t19 9z"/>
</font>
</defs>
</svg>
